Лес / La forêt / Сезон: 1 / Серии: 1-6 из 6 (Джулиус Берг) [2017, Франция, драма, криминал, триллер, WEB-DLRip] DVO (ViruseProject) + Original + sub (rus)

Страницы:  1

Ответить
Автор
Сообщение

агент смит

Стаж: 9 лет 11 месяцев

Сообщений: 2293

агент смит · 10-Апр-19 11:42 (2 месяца 8 дней назад)

Лес / La forêt
Год выпуска: 2017
Страна: Франция
Жанр: драма, криминал, триллер
Продолжительность: ~00:55:00
Перевод: Любительский (двухголосый закадровый) ViruseProject
Режиссёр: Джулиус Берг
В ролях: Самюэль Лабарт, Сюзанн Клеман, Алексия Бальер, Фредерик Дифенталь, Патрик Ридремон, Николя Марье и др.
Описание: Однажды ночью из своей деревни в Арденнах исчезает 16-летняя девушка Дженифер. Капитан Гаспар Декер ведет расследование с местной полицейской Виржини Муссо, которая хорошо знала девушку. Им помогает учительница пропавшей, Эв, одинокая и таинственная женщина.

Качество: WEB-DLRip
Контейнер: AVI
Видео: 720x400 (1.80:1), 25 fps, XviD build 67 ~1598 kbps avg, 0.22 bit/pixel
Аудио RU: 44.100 kHz, MPEG Layer 3, 2 ch, ~128.00 kbps avg
Аудио FRE: 48 kHz, MPEG Layer 3, 2 ch, ~128.00 kbps avg
Субтитры: русские (ViruseProject)
Реклама: В аудио в начале и конце по 12 секунд.
MediaInfo
General
Complete name : La.forêt.S01E01.400p.WEB-DL.ViruseProject.avi
Format : AVI
Format/Info : Audio Video Interleave
File size : 677 MiB
Duration : 50 min 38 s
Overall bit rate : 1 870 kb/s
Writing application : VirtualDubMod 1.5.10.2 (build 2540/release)
Writing library : VirtualDubMod build 2540/release
Video
ID : 0
Format : MPEG-4 Visual
Format profile : Advanced [email protected]
Format settings, BVOP : 2
Format settings, QPel : No
Format settings, GMC : No warppoints
Format settings, Matrix : Default (H.263)
Codec ID : XVID
Codec ID/Hint : XviD
Duration : 50 min 38 s
Bit rate : 1 600 kb/s
Width : 720 pixels
Height : 400 pixels
Display aspect ratio : 16:9
Frame rate : 25.000 FPS
Color space : YUV
Chroma subsampling : 4:2:0
Bit depth : 8 bits
Scan type : Progressive
Compression mode : Lossy
Bits/(Pixel*Frame) : 0.222
Stream size : 579 MiB (86%)
Writing library : XviD 67
Audio #1
ID : 1
Format : MPEG Audio
Format version : Version 1
Format profile : Layer 3
Mode : Joint stereo
Mode extension : MS Stereo
Codec ID : 55
Codec ID/Hint : MP3
Duration : 50 min 38 s
Bit rate mode : Constant
Bit rate : 128 kb/s
Channel(s) : 2 channels
Sampling rate : 44.1 kHz
Compression mode : Lossy
Stream size : 46.4 MiB (7%)
Alignment : Split accross interleaves
Interleave, duration : 40 ms (1.00 video frame)
Interleave, preload duration : 500 ms
Writing library : LAME3.100
Audio #2
ID : 2
Format : MPEG Audio
Format version : Version 1
Format profile : Layer 3
Mode : Joint stereo
Mode extension : MS Stereo
Codec ID : 55
Codec ID/Hint : MP3
Duration : 50 min 38 s
Bit rate mode : Constant
Bit rate : 128 kb/s
Channel(s) : 2 channels
Sampling rate : 48.0 kHz
Compression mode : Lossy
Stream size : 46.4 MiB (7%)
Alignment : Split accross interleaves
Interleave, duration : 40 ms (1.00 video frame)
Interleave, preload duration : 500 ms
Writing library : LAME3.100ЄЄЄЄЄЄЄЄЄЄЄ
Скриншоты
Предыдущие и альтернативные раздачи
Download
Для скачивания .torrent файлов необходима регистрация
Сайт не распространяет и не хранит электронные версии произведений, а лишь предоставляет доступ к создаваемому пользователями каталогу ссылок на торрент-файлы, которые содержат только списки хеш-сумм
[Профиль]  [ЛС] 

_ivanes

Top Seed 05* 640r

Стаж: 7 лет 8 месяцев

Сообщений: 1695

_ivanes · 10-Апр-19 12:57 (спустя 1 час 15 мин.)

Цитата:
Реклама: В аудио в начале и конце по 12 секунд.
ПРАВИЛО О РЕКЛАМЕ (01.11.2016)
T временная
[Профиль]  [ЛС] 

.VIKA.

Стаж: 9 лет 1 месяц

Сообщений: 629

.VIKA. · 16-Апр-19 09:05 (спустя 5 дней)

хороший сериал , мне понравился , спасибо :)))
[Профиль]  [ЛС] 

bot · 20-Апр-19 16:08 (спустя 4 дня)

Тема была перенесена из форума Зарубежные сериалы в форум Европейские сериалы
Wentworth_Miller
 

b_alex2003bkru

Стаж: 7 лет

Сообщений: 13


b_alex2003bkru · 26-Апр-19 10:16 (спустя 10 дней)

Не воспроизводился на телевизоре через wi-fi с помощью сервера HMS. Решилась проблема удалением кривой буквы е в названии серий.
[Профиль]  [ЛС] 

leshamsc

Стаж: 10 лет 10 месяцев

Сообщений: 79


leshamsc · 05-Май-19 11:14 (спустя 9 дней)

Интересный сериал, снят хорошо. Жаль реклама не только в начале и конце, но и в середине бубнит временами.
[Профиль]  [ЛС] 
 
Ответить
Loading...
Error